Kodi Wiedergabe stockt bei manchen Filmen, Ton ist OK

Diese Seite verwendet Cookies. Durch die Nutzung unserer Seite erklären Sie sich damit einverstanden, dass wir Cookies setzen. Weitere Informationen

  • Kodi Wiedergabe stockt bei manchen Filmen, Ton ist OK

    Hallo,
    ich habe einen Juning Media Player mit Android 4.4.2.
    Darauf läuft Kodi Jarvis. Ein Update geht leider nicht weil es keine neuere Version für Android 4 gibt.
    Bisher hatte ich wenig Probleme bei der Filmwiedergabe doch jetzt habe ich ein merkwürdiges Problem.
    Ich habe die Serie Tatortreiniger als avi files auf einer direkt angeschlossenen USB Festplatte
    Manche Episoden laufen problemlos andere stocken bei der Bildwiedergabe aber haben durchgängigen Ton.
    Laut Mediainfo sind die Dateien gleich kodiert. Mit VLC kann ich sie auch problemlos abspielen.
    Anbei mal die Ausgaben von Mediainfo, Episode 1 läuft ok, Episode 2 stockt.
    Kennt jemand das Problem und hat einen Tipp für mich, wie ich das ggf. abstellen kann?



    General
    Complete name : G:\Movies\Noch\Tatortreiniger\Der Tatortreiniger 1e1 - Ganz normale Jobs.avi
    Format : AVI
    Format/Info : Audio Video Interleave
    File size : 161 MiB
    Duration : 27 min 7 s
    Overall bit rate : 828 kb/s
    Writing application : Lavf54.17.100
    Writing library : VirtualDub build 35491/release


    Video
    ID : 0
    Format : AVC
    Format/Info : Advanced Video Codec
    Format profile : High@L3
    Format settings : CABAC / 4 Ref Frames
    Format settings, CABAC : Yes
    Format settings, RefFrames : 4 frames
    Codec ID : H264
    Duration : 27 min 7 s
    Bit rate : 623 kb/s
    Width : 720 pixels
    Height : 576 pixels
    Display aspect ratio : 16:9
    Frame rate : 25.000 FPS
    Standard : PAL
    Color space : YUV
    Chroma subsampling : 4:2:0
    Bit depth : 8 bits
    Scan type : Progressive
    Bits/(Pixel*Frame) : 0.060
    Stream size : 121 MiB (75%)
    Color range : Limited
    Color primaries : BT.601 PAL
    Transfer characteristics : BT.470 System B/G
    Matrix coefficients : BT.470 System B/G


    Audio
    ID : 1
    Format : MPEG Audio
    Format version : Version 1
    Format profile : Layer 3
    Format settings : Joint stereo / MS Stereo
    Codec ID : 55
    Codec ID/Hint : MP3
    Duration : 27 min 7 s
    Bit rate mode : Constant
    Bit rate : 192 kb/s
    Channel(s) : 2 channels
    Sampling rate : 48.0 kHz
    Compression mode : Lossy
    Stream size : 37.3 MiB (23%)
    Alignment : Aligned on interleaves
    Interleave, duration : 24 ms (0.60 video frame)
    Interleave, preload duration : 504 ms

    General
    Complete name : G:\Movies\Noch\Tatortreiniger\Der Tatortreiniger 1e2 Spuren.avi
    Format : AVI
    Format/Info : Audio Video Interleave
    File size : 155 MiB
    Duration : 25 min 37 s
    Overall bit rate : 848 kb/s
    Writing application : Lavf54.17.100
    Writing library : VirtualDub build 35491/release


    Video
    ID : 0
    Format : AVC
    Format/Info : Advanced Video Codec
    Format profile : High@L3
    Format settings : CABAC / 4 Ref Frames
    Format settings, CABAC : Yes
    Format settings, RefFrames : 4 frames
    Codec ID : H264
    Duration : 25 min 37 s
    Bit rate : 643 kb/s
    Width : 720 pixels
    Height : 576 pixels
    Display aspect ratio : 16:9
    Frame rate : 25.000 FPS
    Standard : PAL
    Color space : YUV
    Chroma subsampling : 4:2:0
    Bit depth : 8 bits
    Scan type : Progressive
    Bits/(Pixel*Frame) : 0.062
    Stream size : 118 MiB (76%)
    Color range : Limited
    Color primaries : BT.601 PAL
    Transfer characteristics : BT.470 System B/G
    Matrix coefficients : BT.470 System B/G


    Audio
    ID : 1
    Format : MPEG Audio
    Format version : Version 1
    Format profile : Layer 3
    Format settings : Joint stereo / MS Stereo
    Codec ID : 55
    Codec ID/Hint : MP3
    Duration : 25 min 37 s
    Bit rate mode : Constant
    Bit rate : 192 kb/s
    Channel(s) : 2 channels
    Sampling rate : 48.0 kHz
    Compression mode : Lossy
    Stream size : 35.2 MiB (23%)
    Alignment : Aligned on interleaves
    Interleave, duration : 24 ms (0.60 video frame)
    Interleave, preload duration : 504 ms
  • Einige AVI-Dateien mit H.264-kodiertem Video haben Probleme, wenn du sie mit Hardware-Dekodierung abspielst einige SoCs spielen sie reibungslos ab

    In Kodi einen anderen Player in diesem Fall den VLC zur Wiedergabe einbinden.

    Pansonic TX 58DXX789,HiMedia Q10 Pro + 9x8 TB WD + Int. 8 TB WD Script @messer, CFW 2.0.7 by @moere22
    AVR: Yamaha RX V 631 Multicast,
    Kodi 18.1 (Leia)
    Synology DS 1618+ mit 6x 8 TB WD RED
    Synology DS 1618+ mit 6x 10 TB WD Ironwolf