4K Test File

    Diese Seite verwendet Cookies. Durch die Nutzung unserer Seite erklären Sie sich damit einverstanden, dass wir Cookies setzen. Weitere Informationen

    • 4K Test File

      Servus

      Ich hab mir mal dieses 4K Filmchen geholt und über den Eweat mit FW 20141030 abgespielt.
      Abspielen tut er es auch aber ruckelfrei ist was anderes.
      Jetzt würde mich mal interessieren ob der Eweat mit neuerer FW das besser kann oder ob überhaupt ein Player die Datei ruckelfrei wiedergibt.

      Hier mal die Mediainfo zum File
      Spoiler anzeigen

      Format : Matroska
      Format version : Version 2
      File size : 4.20 GiB
      Duration : 14mn 48s
      Overall bit rate : 40.6 Mbps
      Encoded date : UTC 2011-05-11 09:46:37
      Writing application : mkvmerge v2.9.7 ('Tenderness') built on Jul 1 2009 18:43:35
      Writing library : libebml v0.7.7 + libmatroska v0.8.1
      Video
      ID : 1
      Format : AVC
      Format/Info : Advanced Video Codec
      Format profile : High@L5.1
      Format settings, CABAC : Yes
      Format settings, ReFrames : 4 frames
      Codec ID : V_MPEG4/ISO/AVC
      Duration : 14mn 48s
      Bit rate : 40.0 Mbps
      Width : 4 096 pixels
      Height : 1 744 pixels
      Display aspect ratio : 2.35:1
      Frame rate mode : Constant
      Frame rate : 24.000 fps
      Color space : YUV
      Chroma subsampling : 4:2:0
      Bit depth : 8 bits
      Scan type : Progressive
      Bits/(Pixel*Frame) : 0.233
      Stream size : 4.05 GiB (96%)
      Writing library : x264 core 115 r1947 b5a8ad7
      Encoding settings : cabac=1 / ref=4 / deblock=1:-3:-3 / analyse=0x3:0x133 / me=tesa / subme=10 / psy=1 / psy_rd=0.80:0.30 / mixed_ref=1 / me_range=16 / chroma_me=1 / trellis=2 / 8x8dct=1 / cqm=0 / deadzone=21,11 / fast_pskip=0 / chroma_qp_offset=-4 / threads=3 / sliced_threads=0 / nr=0 / decimate=0 / interlaced=0 / bluray_compat=0 / constrained_intra=0 / bframes=6 / b_pyramid=2 / b_adapt=2 / b_bias=0 / direct=3 / weightb=1 / open_gop=0 / weightp=2 / keyint=250 / keyint_min=24 / scenecut=40 / intra_refresh=0 / rc=2pass / mbtree=0 / bitrate=40000 / ratetol=1.0 / qcomp=0.60 / qpmin=0 / qpmax=69 / qpstep=4 / cplxblur=20.0 / qblur=0.5 / ip_ratio=1.40 / pb_ratio=1.30 / aq=1:1.00 / zones=80,751,b=2.0/1572,1954,b=2.0/12210,12303,b=2.0
      Language : English
      Default : Yes
      Forced : No
      Matrix coefficients : BT .709
      Color range : Limited
      Audio
      ID : 2
      Format : AC-3
      Format/Info : Audio Coding 3
      Mode extension : CM (complete main)
      Format settings, Endianness : Big
      Codec ID : A_AC3
      Duration : 14mn 48s
      Bit rate mode : Constant
      Bit rate : 640 Kbps
      Channel(s) : 6 channels
      Channel positions : Front: L C R, Side: L R, LFE
      Sampling rate : 48.0 KHz
      Bit depth : 16 bits
      Compression mode : Lossy
      Stream size : 67.8 MiB (2%)
      Title : AC3 5.1 @ 640 Kbps
      Language : English
      Default : Yes
      Forced : No
      Text #1
      ID : 3
      Format : UTF-8
      Codec ID : S_TEXT/UTF8
      Codec ID/Info : UTF-8 Plain Text
      Language : German
      Default : Yes
      Forced : No
      Text #2
      ID : 4
      Format : UTF-8
      Codec ID : S_TEXT/UTF8
      Codec ID/Info : UTF-8 Plain Text
      Language : English
      Default : No
      Forced : No
      Text #3
      ID : 5
      Format : UTF-8
      Codec ID : S_TEXT/UTF8
      Codec ID/Info : UTF-8 Plain Text
      Language : Spanish
      Default : No
      Forced : No
      Text #4
      ID : 6
      Format : UTF-8
      Codec ID : S_TEXT/UTF8
      Codec ID/Info : UTF-8 Plain Text
      Language : French
      Default : No
      Forced : No
      Text #5
      ID : 7
      Format : UTF-8
      Codec ID : S_TEXT/UTF8
      Codec ID/Info : UTF-8 Plain Text
      Language : Italian
      Default : No
      Forced : No
      Text #6
      ID : 8
      Format : UTF-8
      Codec ID : S_TEXT/UTF8
      Codec ID/Info : UTF-8 Plain Text
      Language : Dutch
      Default : No
      Forced : No
      Text #7
      ID : 9
      Format : UTF-8
      Codec ID : S_TEXT/UTF8
      Codec ID/Info : UTF-8 Plain Text
      Language : Polish
      Default : No
      Forced : No
      Text #8
      ID : 10
      Format : UTF-8
      Codec ID : S_TEXT/UTF8
      Codec ID/Info : UTF-8 Plain Text
      Language : Portuguese
      Default : No
      Forced : No
      Text #9
      ID : 11
      Format : UTF-8
      Codec ID : S_TEXT/UTF8
      Codec ID/Info : UTF-8 Plain Text
      Language : Russian
      Default : No
      Forced : No
      Text #10
      ID : 12
      Format : UTF-8
      Codec ID : S_TEXT/UTF8
      Codec ID/Info : UTF-8 Plain Text
      Language : Vietnamese
      Default : No
      Forced : No
      Menu
      00:00:00.000 : :Chapter 01
      00:01:43.125 : :Chapter 02
      00:02:28.667 : :Chapter 03
      00:05:49.792 : :Chapter 04
      00:07:17.208 : :Chapter 05
      00:07:52.075 : :Chapter 06
      00:11:18.833 : :Chapter 07
      00:12:24.083 : :Chapter 08


      Gruss
      Two Bier or not two Bier, thats the Quetschen. gr_ihhhh




      Mediaplayer: Eweat EW902 ( FW : 20151128) Eweat R9 ( FW : V1.04_20170116)
      TV: Panasonic TX-L47WT50E ( FW : 1.630)
      AVR : Harman Kardon AVR151S ( FW : 01.10)
      NAS Systeme: Synology DS215j 2x WD Desktop Green 40 EZRX 4TB
      Lenovo Iomega IX2-DL WD Desktop Green 60 EZRX 6TB ; WD Desktop Green 30 EZRX 3TB
    • Blaureiher schrieb:

      Hallo Renalto,

      ich habe die Datei heruntergeladen, und werde sie gleich mal testen.
      Hättest aber auch dazuschreiben können, dass sie 4,2GB groß ist. Zum Glück habe ich nun eine schnelle Internetverbindung :thumbsup:
      siehste doch im Spoiler :)

      Format : Matroska
      Format version : Version 2
      File size : 4.20 GiB
      Duration : 14mn 48s
      Gruß
      moere

      Zidoo X9S | Open Hour Gecko | HiMedia H8 Octa | HiMedia Q5 4K3D Quad | HiMedia Q5 Pro | VidOn Box | EWEAT EW902 | HTPC intel i5, 4GB, 128GB SSD , Win7, iR
      Yamaha AV RX-V473 | Panasonic TX-P50VT20EA (Plasma 3D) | Playstation 3 | NAS Synology 414j 4x4TB (HMS5C4040BLE640)

      ehem. Player: HiMedia Q6-II eMMC | MiniX Neo X8-H | Phantom MX4 | Tronsmart Vega S89-H


      Custom Firmware | AddonSammlung | Deutsches IPTV

      Dir gefällt die Seite und Arbeit, dann würden wir uns über eine kleine Spende freuen.

    • @Blaureiher
      Ich dachte mir Deine Internetverbindung braucht auch mal was zutun :D
      Danke für testen. Bin mal gespannt ob es bei Dir besser läuft, bei mir ruckeln die Schwenks.

      Gruss
      Two Bier or not two Bier, thats the Quetschen. gr_ihhhh




      Mediaplayer: Eweat EW902 ( FW : 20151128) Eweat R9 ( FW : V1.04_20170116)
      TV: Panasonic TX-L47WT50E ( FW : 1.630)
      AVR : Harman Kardon AVR151S ( FW : 01.10)
      NAS Systeme: Synology DS215j 2x WD Desktop Green 40 EZRX 4TB
      Lenovo Iomega IX2-DL WD Desktop Green 60 EZRX 6TB ; WD Desktop Green 30 EZRX 3TB
    • Danke @Blaureiher
      Ich hatte es von einer USB Platte versucht aber nicht dem selben Ergebnis.
      Kennt jemand ein Programm mit dem man die Datei in H.265 umrechnen kann?
      H.265 sollte eigentlich vom Eweat sauber in 4K wiedergegeben werden.

      Gruss
      Two Bier or not two Bier, thats the Quetschen. gr_ihhhh




      Mediaplayer: Eweat EW902 ( FW : 20151128) Eweat R9 ( FW : V1.04_20170116)
      TV: Panasonic TX-L47WT50E ( FW : 1.630)
      AVR : Harman Kardon AVR151S ( FW : 01.10)
      NAS Systeme: Synology DS215j 2x WD Desktop Green 40 EZRX 4TB
      Lenovo Iomega IX2-DL WD Desktop Green 60 EZRX 6TB ; WD Desktop Green 30 EZRX 3TB
    • schau doch mal bei Tante Google vorbei, wird doch bestimmt etwas dabei sein ;)

      google.de/webhp?sourceid=chrom…UTF-8#q=4k+files+to+h.265
      Gruß
      moere

      Zidoo X9S | Open Hour Gecko | HiMedia H8 Octa | HiMedia Q5 4K3D Quad | HiMedia Q5 Pro | VidOn Box | EWEAT EW902 | HTPC intel i5, 4GB, 128GB SSD , Win7, iR
      Yamaha AV RX-V473 | Panasonic TX-P50VT20EA (Plasma 3D) | Playstation 3 | NAS Synology 414j 4x4TB (HMS5C4040BLE640)

      ehem. Player: HiMedia Q6-II eMMC | MiniX Neo X8-H | Phantom MX4 | Tronsmart Vega S89-H


      Custom Firmware | AddonSammlung | Deutsches IPTV

      Dir gefällt die Seite und Arbeit, dann würden wir uns über eine kleine Spende freuen.

    • Danke @moere22
      Von Google hab ich auch schon mal gehört. :D
      Ich dachte eher an ein Programm das schon jemand nutzt und bereits Erfahrung damit hat wegen der Einstellungen die man vornehmen muss. Leider läuft da nämlich nicht alles was man damit codieren kann.


      Gruss
      Two Bier or not two Bier, thats the Quetschen. gr_ihhhh




      Mediaplayer: Eweat EW902 ( FW : 20151128) Eweat R9 ( FW : V1.04_20170116)
      TV: Panasonic TX-L47WT50E ( FW : 1.630)
      AVR : Harman Kardon AVR151S ( FW : 01.10)
      NAS Systeme: Synology DS215j 2x WD Desktop Green 40 EZRX 4TB
      Lenovo Iomega IX2-DL WD Desktop Green 60 EZRX 6TB ; WD Desktop Green 30 EZRX 3TB
    • So, ich versuch das ganze mal mit Handbrake.
      Uff, das wird dauern. Für die Umrechnung von einer Viertelstunde Film benötigt mein Rechenknecht ca. 3 Stunden bei einer CPU Auslastung von 98 - 99 % und 2,5 Gig Ram Verbrauch. g_shocked

      Gruss
      Two Bier or not two Bier, thats the Quetschen. gr_ihhhh




      Mediaplayer: Eweat EW902 ( FW : 20151128) Eweat R9 ( FW : V1.04_20170116)
      TV: Panasonic TX-L47WT50E ( FW : 1.630)
      AVR : Harman Kardon AVR151S ( FW : 01.10)
      NAS Systeme: Synology DS215j 2x WD Desktop Green 40 EZRX 4TB
      Lenovo Iomega IX2-DL WD Desktop Green 60 EZRX 6TB ; WD Desktop Green 30 EZRX 3TB
    • Wat hast Du da nen Dual Core g_lol

      Gruss Lony
      Mediaplayer: EWEAT R9_Plus/ W9, ZIDOO X9s, X6Pro, Nvidia Shield, Fantec 4KS5700, VidOn AV200, Himedia Q10-Pro
      TV :Sony KD-75XD9405, SONY KDL 52LX905
      AVR Denon X4200W
      SOUNDSYSTEM :Teufel System 5 THX Select
      HTPC ZOTAC CI520 Win7 Pro 64bit
      NAS : (Synology) DS112+ -1 x 2TB WD Green, DS414J - 4 x 4TB WD RED, DS415+ - 4 x 3TB WD RED
      , DS216Play - 2 x 2TB WD RED
    • Hier werkelt quasi ein Highend Intel Core I3 550 mit einer Nvidia Geforce GTX 550 Ti.
      Da kannst Du mit Deinem Rechenschieber einpacken. :D

      Gruss
      Two Bier or not two Bier, thats the Quetschen. gr_ihhhh




      Mediaplayer: Eweat EW902 ( FW : 20151128) Eweat R9 ( FW : V1.04_20170116)
      TV: Panasonic TX-L47WT50E ( FW : 1.630)
      AVR : Harman Kardon AVR151S ( FW : 01.10)
      NAS Systeme: Synology DS215j 2x WD Desktop Green 40 EZRX 4TB
      Lenovo Iomega IX2-DL WD Desktop Green 60 EZRX 6TB ; WD Desktop Green 30 EZRX 3TB
    • Das war aber jetzt nicht nett von Dir g_lol

      Ok bei nem i3 dauert das ganze ja auch 3 mal so lange hahaha

      Gruss Lony
      Mediaplayer: EWEAT R9_Plus/ W9, ZIDOO X9s, X6Pro, Nvidia Shield, Fantec 4KS5700, VidOn AV200, Himedia Q10-Pro
      TV :Sony KD-75XD9405, SONY KDL 52LX905
      AVR Denon X4200W
      SOUNDSYSTEM :Teufel System 5 THX Select
      HTPC ZOTAC CI520 Win7 Pro 64bit
      NAS : (Synology) DS112+ -1 x 2TB WD Green, DS414J - 4 x 4TB WD RED, DS415+ - 4 x 3TB WD RED
      , DS216Play - 2 x 2TB WD RED
    • Lony schrieb:

      Ok bei nem i3 dauert das ganze ja auch 3 mal so lange hahaha
      Na dann bin ich ja froh das ich keine I7 habe den dann würde es nach Deiner Rechnung ja 7mal solange dauern. :D

      Gruss
      Two Bier or not two Bier, thats the Quetschen. gr_ihhhh




      Mediaplayer: Eweat EW902 ( FW : 20151128) Eweat R9 ( FW : V1.04_20170116)
      TV: Panasonic TX-L47WT50E ( FW : 1.630)
      AVR : Harman Kardon AVR151S ( FW : 01.10)
      NAS Systeme: Synology DS215j 2x WD Desktop Green 40 EZRX 4TB
      Lenovo Iomega IX2-DL WD Desktop Green 60 EZRX 6TB ; WD Desktop Green 30 EZRX 3TB
    • Am besten halt ich jetzt meinen Mund hahaha

      Du hörst ja sonst nicht auf und dann meckert der Co-Admin ;)

      Gruss Lony
      Mediaplayer: EWEAT R9_Plus/ W9, ZIDOO X9s, X6Pro, Nvidia Shield, Fantec 4KS5700, VidOn AV200, Himedia Q10-Pro
      TV :Sony KD-75XD9405, SONY KDL 52LX905
      AVR Denon X4200W
      SOUNDSYSTEM :Teufel System 5 THX Select
      HTPC ZOTAC CI520 Win7 Pro 64bit
      NAS : (Synology) DS112+ -1 x 2TB WD Green, DS414J - 4 x 4TB WD RED, DS415+ - 4 x 3TB WD RED
      , DS216Play - 2 x 2TB WD RED
    • So, nach 3,5 Stunden rechenzeit hab ich jetzt einen Datei im h.265 Codec. :D

      Mediainfo, bitte Spoiler öffnen ;)
      Spoiler anzeigen

      Format : Matroska
      Format version : Version 2
      File size : 1.69 GiB
      Duration : 14mn 48s
      Overall bit rate : 16.4 Mbps
      Writing application : HandBrake 0.10.1 2015030800
      Writing library : Lavf55.12.0
      Video
      ID : 1
      Format : HEVC
      Format/Info : High Efficiency Video Coding
      Format profile : Main@L5.0
      Codec ID : V_MPEGH/ISO/HEVC
      Duration : 14mn 48s
      Bit rate : 15.4 Mbps
      Width : 4 096 pixels
      Height : 1 744 pixels
      Display aspect ratio : 2.35:1
      Frame rate mode : Constant
      Frame rate : 24.000 fps
      Color space : YUV
      Chroma subsampling : 4:2:0
      Bit depth : 8 bits
      Bits/(Pixel*Frame) : 0.090
      Stream size : 1.59 GiB (94%)
      Writing library : x265 1.5:[Windows][GCC 4.9.0][64 bit]
      Encoding settings : wpp / ctu=32 / tu-intra-depth=1 / tu-inter-depth=1 / me=1 / subme=1 / merange=57 / no-rect / no-amp / max-merge=2 / temporal-mvp / early-skip / no-fast-cbf / rdpenalty=0 / no-tskip / no-tskip-fast / strong-intra-smoothing / no-lossless / no-cu-lossless / no-constrained-intra / fast-intra / open-gop / interlace=0 / keyint=240 / min-keyint=24 / scenecut=40 / rc-lookahead=15 / bframes=4 / bframe-bias=0 / b-adapt=0 / ref=1 / weightp / no-weightb / aq-mode=1 / aq-strength=1.00 / cbqpoffs=0 / crqpoffs=0 / rd=2 / psy-rd=0.30 / psy-rdoq=0.00 / signhide / lft / sao / no-sao-non-deblock / b-pyramid / no-cutree / rc=crf / crf=20.0 / qcomp=0.60 / qpmin=0 / qpmax=51 / qpstep=4 / ipratio=1.40 / pbratio=1.30
      Default : Yes
      Forced : No
      Color primaries : BT .709
      Transfer characteristics : BT .709
      Matrix coefficients : BT .709
      Color range : Limited
      Audio
      ID : 2
      Format : AC-3
      Format/Info : Audio Coding 3
      Mode extension : CM (complete main)
      Format settings, Endianness : Big
      Codec ID : A_AC3
      Duration : 14mn 48s
      Bit rate mode : Constant
      Bit rate : 640 Kbps
      Channel(s) : 6 channels
      Channel positions : Front: L C R, Side: L R, LFE
      Sampling rate : 48.0 KHz
      Bit depth : 16 bits
      Compression mode : Lossy
      Stream size : 67.8 MiB (4%)
      Title : Surround
      Language : English
      Default : Yes
      Forced : No
      Menu
      00:00:00.000 : :Chapter 1
      00:01:43.208 : :Chapter 2
      00:02:28.750 : :Chapter 3
      00:05:49.875 : :Chapter 4
      00:07:17.291 : :Chapter 5
      00:07:52.208 : :Chapter 6
      00:11:18.916 : :Chapter 7
      00:12:24.166 : :Chapter 8


      Der Eweat kommt mit diesem Codec mit 4K viel besser klar, die Schwenks ruckeln immer noch leicht aber kein Vergleich zum h.264 Codec.
      Möglicherweise konnte man noch mit den Einstellungen in Handbreak spielen um das ruckeln vollständig zu beseitigen aber herfür hab ich zu wenig Ahnung von der Sache.

      Gruss
      Two Bier or not two Bier, thats the Quetschen. gr_ihhhh




      Mediaplayer: Eweat EW902 ( FW : 20151128) Eweat R9 ( FW : V1.04_20170116)
      TV: Panasonic TX-L47WT50E ( FW : 1.630)
      AVR : Harman Kardon AVR151S ( FW : 01.10)
      NAS Systeme: Synology DS215j 2x WD Desktop Green 40 EZRX 4TB
      Lenovo Iomega IX2-DL WD Desktop Green 60 EZRX 6TB ; WD Desktop Green 30 EZRX 3TB
    • Hat er die Probleme nur bei den Schwencks oder grundsätzlich, denn wenn es nur die Schwencks sind, dann würde ich fast auf das 24p Problem tippen, denn da ist auch noch nicht alles 100 %tig.

      Gruss Lony
      Mediaplayer: EWEAT R9_Plus/ W9, ZIDOO X9s, X6Pro, Nvidia Shield, Fantec 4KS5700, VidOn AV200, Himedia Q10-Pro
      TV :Sony KD-75XD9405, SONY KDL 52LX905
      AVR Denon X4200W
      SOUNDSYSTEM :Teufel System 5 THX Select
      HTPC ZOTAC CI520 Win7 Pro 64bit
      NAS : (Synology) DS112+ -1 x 2TB WD Green, DS414J - 4 x 4TB WD RED, DS415+ - 4 x 3TB WD RED
      , DS216Play - 2 x 2TB WD RED
    • Das betrifft in beiden Codec nur die Schwenks alles andere läuft mit beiden Codec absolut sauber und flüssig.
      Wo bei der h.265 bei den Schwenks einen besseren Eindruck hinterlässt.

      Gruss
      Two Bier or not two Bier, thats the Quetschen. gr_ihhhh




      Mediaplayer: Eweat EW902 ( FW : 20151128) Eweat R9 ( FW : V1.04_20170116)
      TV: Panasonic TX-L47WT50E ( FW : 1.630)
      AVR : Harman Kardon AVR151S ( FW : 01.10)
      NAS Systeme: Synology DS215j 2x WD Desktop Green 40 EZRX 4TB
      Lenovo Iomega IX2-DL WD Desktop Green 60 EZRX 6TB ; WD Desktop Green 30 EZRX 3TB
    • Was bringt Euch 4k Ausgangsmaterial ohne UHD-TV?
      Viele Grüße
      The Sky moves sideways
      --------------------------------------------------------------------------------------------------------------------------------------
      TV: Panasonic TX-50DXX789, Sony Bravia KDL-40EX725BAEP UHD-BD-Player: Panasonic DMP-UB404 AVR /Sound: Yamaha RX-V681 7.2, Onkyo SKS HT 528 5.1 Lautsprechersystem Android-Mediaplayer: Nvidia Shield Tv 16 GB
      Mini-PC: Zotac Zbox Nano CI520 Konsolen: Sony PS4 Pro & PS3 Slim 250GB NAS : Synology DS215j
      |ehemalige Mediaplayer: Tronsmart Vega S95 Telos, Eweat EW902, Minix Neo X8-H, Himedia Q10-II, Mede8ter 600X
    • Ehrlich? Rein Garnichts. ^^
      Aber der Mensch braucht doch was zum spielen und wenn ich weder ein FW noch eine Kodi bekomme dann such ich mir halt was anderes mit dem ich den Player ärgern kann.

      Gruss
      Two Bier or not two Bier, thats the Quetschen. gr_ihhhh




      Mediaplayer: Eweat EW902 ( FW : 20151128) Eweat R9 ( FW : V1.04_20170116)
      TV: Panasonic TX-L47WT50E ( FW : 1.630)
      AVR : Harman Kardon AVR151S ( FW : 01.10)
      NAS Systeme: Synology DS215j 2x WD Desktop Green 40 EZRX 4TB
      Lenovo Iomega IX2-DL WD Desktop Green 60 EZRX 6TB ; WD Desktop Green 30 EZRX 3TB